MENU

PROGRAMY

REKLAMA


DOTACJA

Torrent: Opowieści z Narnii Książe Kaspian - The Chronicles Of Narnia Prince Caspian *2008* [DVDRip] [XviD-miguel] [Dubbing PL]
Opowieści z Narnii Książe Kaspian - The Chronicles Of Narnia Prince Caspian *2008* [DVDRip] [XviD-miguel] [Dubbing PL]
Dodał: Dr.House
Data: 01-05-2011
Rozmiar: 1.37 GB
Seed: 96
Peer: 902



  • *
Głosów: 0
Kategoria: FILMY -> DIVX / XVID
Nie ustawiono gatunku
Zaakceptował: nie wymagał akceptacji
Liczba pobrań: 17
Liczba komentarzy: 0
Ostatnia aktualizacja: 2011-05-01 00:07:31
OPIS:

Produkcja: USA, Słowenia, Polska, Czechy
Gatunek: Fantasy, Przygodowy, Familijny, Akcja
Premiera: 09.05.2008 [Świat]
Reżyseria: Andrew Adamson
Scenariusz: Andrew Adamson, Christopher Markus
Czas trwania: 144 min.
IMDb: http://www.imdb.com/title/tt0499448/
FilmWeb: http://www.filmweb.pl/Opowiesci.Z.Narnii.Ksiaze.Kaspian

Opis:

Tytułowy Książe Kaspian wzywa rodzeństwo Pevensie z powrotem do magicznego świata Narnii, gdzie mineło już 1000 lat od ich znikniecia. Dzieci ponownie zostają zwerbowane do wojska u boku kolorowych postaci z Narnii do walki ze złem, które przeszkadza ksieciu w prawym rządzeniu Narnią. W Narnii nadchodzą złe czasy, książe Kaspian przygotowywał sie do objecia tronu, lecz ciąża ciotki krzyżuje jego plany i wszystko obraca sie o 180 stopni.


Obsada:

Ben Barnes ... Prince Caspian
Georgie Henley ... Lucy Pevensie
Skandar Keynes ... Edmund Pevensie
William Moseley ... Peter Pevensie
Anna Popplewell ... Susan Pevensie
Sergio Castellitto ... Miraz
Peter Dinklage ... Trumpkin
Warwick Davis ... Nikabrik
Vincent Grass ... Doctor Cornelius
Pierfrancesco Favino ... General Glozelle

Dane Techniczne:

[ CD1 ]
Format : AVI
Format/Info : Audio Video Interleave
File size : 700 MiB
Duration : 1h 20mn
Overall bit rate : 1 212 Kbps
Writing application : VirtualDubMod 1.5.10.2 (build 2540/release)
Writing library : VirtualDubMod build 2540/release
Video
ID : 0
Format : MPEG-4 Visual
Format profile : Advanced Simple@L5
Format settings, BVOP : Yes
Format settings, QPel : No
Format settings, GMC : No warppoints
Format settings, Matrix : Default (MPEG)
Codec ID : XVID
Codec ID/Hint : XviD
Duration : 1h 20mn
Bit rate : 818 Kbps
Width : 640 pixels
Height : 272 pixels
Display aspect ratio : 2.35:1
Frame rate : 25.000 fps
Color space : YUV
Chroma subsampling : 4:2:0
Bit depth : 8 bits
Scan type : Progressive
Bits/(Pixel*Frame) : 0.188
Stream size : 472 MiB (68%)
Writing library : XviD 1.2.0.dev47 (UTC 2006-11-01)
Audio
ID : 1
Format : AC-3
Format/Info : Audio Coding 3
Mode extension : CM (complete main)
Codec ID : 2000
Duration : 1h 20mn
Bit rate mode : Constant
Bit rate : 384 Kbps
Channel(s) : 6 channels
Channel positions : Front: L C R, Side: L R, LFE
Sampling rate : 48.0 KHz
Bit depth : 16 bits
Stream size : 222 MiB (32%)
Alignment : Split accross interleaves
Interleave, duration : 40 ms (1.00 video frame)
Interleave, preload duration : 500 ms
[ CD2 ]
Format : AVI
Format/Info : Audio Video Interleave
File size : 700 MiB
Duration : 1h 3mn
Overall bit rate : 1 551 Kbps
Writing application : VirtualDubMod 1.5.10.2 (build 2540/release)
Writing library : VirtualDubMod build 2540/release
Video
ID : 0
Format : MPEG-4 Visual
Format profile : Advanced Simple@L5
Format settings, BVOP : Yes
Format settings, QPel : No
Format settings, GMC : No warppoints
Format settings, Matrix : Default (MPEG)
Codec ID : XVID
Codec ID/Hint : XviD
Duration : 1h 3mn
Bit rate : 1 157 Kbps
Width : 640 pixels
Height : 272 pixels
Display aspect ratio : 2.35:1
Frame rate : 25.000 fps
Color space : YUV
Chroma subsampling : 4:2:0
Bit depth : 8 bits
Scan type : Progressive
Bits/(Pixel*Frame) : 0.266
Stream size : 522 MiB (75%)
Writing library : XviD 1.2.0.dev47 (UTC 2006-11-01)
Audio
ID : 1
Format : AC-3
Format/Info : Audio Coding 3
Mode extension : CM (complete main)
Codec ID : 2000
Duration : 1h 3mn
Bit rate mode : Constant
Bit rate : 384 Kbps
Channel(s) : 6 channels
Channel positions : Front: L C R, Side: L R, LFE
Sampling rate : 48.0 KHz
Bit depth : 16 bits
Stream size : 173 MiB (25%)
Alignment : Split accross interleaves
Interleave, duration : 40 ms (1.00 video frame)
Interleave, preload duration : 500 ms
Language: Polish Dubbing
Subtitles: N/A
SCREENY:
                
TRAILER:
REKLAMA:
DETALE TORRENTA:[ Pokaż/Ukryj ]

Podobne pliki
Opowieści z Narnii Podróż Wedrowca Do Świtu - The Chronicles Of Narnia The Voyage Of The Dawn Treader *2010* [BDRip] [XviD-miguel] [Dubbing PL]
Opowieści z Narnii Podróż Wedrowca Do Świtu - The Chronicles Of Narnia The Voyage Of The Dawn Treader *2010* [BDRip] [XviD-miguel] [Dubbing PL]
Chronicles of Narnia 1 - 2 / Opowieści z Narnii 1 – 2 *2005 - 2008* [PAL] [2xDVD9] [Dubbing i Napisy PL]
 Chronicles   of   Narnia  1  - 2  /   Opowieści   z   Narnii  1  –  2   *2005  -  2008*   [PAL]   [2xDVD9]    [Dubbing i Napisy PL]
Opowieści z Narnii: Podróż Wędrowca Do Świtu - The Chronicles Of Narnia: The Voyage Of The Dawn Treader *2010* [DVDRip] [XviD] [AC3] [Dubbing PL]
Opowieści z Narnii: Podróż Wędrowca Do Świtu - The Chronicles Of Narnia: The Voyage Of The Dawn Treader *2010* [DVDRip] [XviD] [AC3] [Dubbing PL]
Opowieści z Narnii: Podróż Wędrowca Do Świtu - The Chronicles Of Narnia: The Voyage Of The Dawn Treader *2010* [DVDRip] [XviD] [Dubbing PL]
Opowieści z Narnii: Podróż Wędrowca Do Świtu - The Chronicles Of Narnia: The Voyage Of The Dawn Treader *2010* [DVDRip] [XviD] [Dubbing PL]
Opowieści z Narnii: Podróż Wędrowca do Świtu - The Chronicles of Narnia: The Voyage of the Dawn Treader [TS] [XviD] [Dubbing PL]
Opowieści z Narnii: Podróż Wędrowca do Świtu - The Chronicles of Narnia: The Voyage of the Dawn Treader [TS] [XviD] [Dubbing PL]
Opowieści Z Narnii: Podróż Wędrowca Do Świtu - The Chronicles Of Narnia: The Voyage Of The Dawn Treader *2010* [BDRip] [XviD-K9] [Dubbing PL]
Opowieści Z Narnii: Podróż Wędrowca Do Świtu - The Chronicles Of Narnia: The Voyage Of The Dawn Treader *2010* [BDRip] [XviD-K9] [Dubbing PL]
Opowieści z Narnii: Podróż Wędrowca do Świtu / The Chronicles of Narnia: The Voyage of the Dawn Treader *2010* [BRRip] [XviD] [Dubbing PL]
Opowieści z Narnii: Podróż Wędrowca do Świtu / The Chronicles of Narnia: The Voyage of the Dawn Treader *2010* [BRRip] [XviD] [Dubbing PL]
Opowieści z Narnii: Podróż Wędrowca do Świtu - Chronicles of Narnia: The Voyage of the Dawn Treader, The *2010* [PAL] [DVD5] [Dubbing PL]
Opowieści z Narnii: Podróż Wędrowca do Świtu - Chronicles of Narnia: The Voyage of the Dawn Treader, The *2010* [PAL] [DVD5] [Dubbing PL]

Komentarze

Brak komentarzy

Zaloguj się aby skomentować