MENU

PROGRAMY

REKLAMA


DOTACJA

Torrent: Czas Bohaterów - Age Of Heroes *2011* [DVDRip] [XviD] [ENG]
Czas Bohaterów - Age Of Heroes *2011* [DVDRip] [XviD] [ENG]
Dodał: D-E-V-I-L
Data: 15-06-2011
Rozmiar: 1.59 GB
Seed: 21
Peer: 14



  • *
Głosów: 0
Kategoria: FILMY -> DIVX / XVID
Nie ustawiono gatunku
Zaakceptował:
Liczba pobrań: 1
Liczba komentarzy: 0
Ostatnia aktualizacja: 2011-09-02 20:55:51
OPIS:
Produkcja.....: Wielka Brytania
Gatunek.......: Wojenny
Data premiery.: 20.05.2011 [Świat]
Reżyseria.....: Adrian Vitoria
Scenariusz....: Adrian Vitoria, Ed Scates
Czas trwania..: 90 min.
More..........: http://www.imdb.com/title/tt1590950
Trailer.......: http://www.imdb.com/video/imdb/vi890019097

Opis :

Akcja filmu rozgrywa się podczas II wojny światowej i przedstawia prawdziwe przygody brytyjskiego oddziału komandosów - 30 Commando Unit, który był prekursorem dzisiejszych oddziałów specjalnych w Wielkiej Brytanii.

Obsada :

Sean Bean ... Jones
Izabella Miko ... Jensen
Danny Dyer ... Rains
James D Arcy ... Ian Fleming
Sebastian Street ... Colonel Archer
William Houston ... Mac
Daniel Brocklebank ... RMP Sergeant Hamilton
John Dagleish ... Roger Rollright
Aksel Hennie ... Steinar
Guy Burnet ... Riley
Stephen Walters ... Brightling
Rosie Fellner ... Sophie Holbrook
Jay Simpson ... RMP Company Sergeant Major
David Gwillim ... SS Mountain Troops
Theo Barklem Biggs ... Jimmy

Dane Techniczne :

!!! SAMPLE !!!

Audio.....: Angielskie
Napisy....: Brak
Format : AVI
Format/Info : Audio Video Interleave
File size : 1.58 GiB
Duration : 1h 29mn
Overall bit rate : 2 524 Kbps
Writing library : VirtualDub build 32706/release
Video
ID : 0
Format : MPEG-4 Visual
Format profile : Advanced Simple@L5
Format settings, BVOP : Yes
Format settings, QPel : No
Format settings, GMC : No warppoints
Format settings, Matrix : Default (MPEG)
Muxing mode : Packed bitstream
Codec ID : XVID
Codec ID/Hint : XviD
Duration : 1h 29mn
Bit rate : 2 066 Kbps
Width : 720 pixels
Height : 304 pixels
Display aspect ratio : 2.35:1
Frame rate : 25.000 fps
Color space : YUV
Chroma subsampling : 4:2:0
Bit depth : 8 bits
Scan type : Progressive
Bits/(Pixel*Frame) : 0.378
Stream size : 1.30 GiB (82%)
Writing library : XviD 61
Audio
ID : 1
Format : AC-3
Format/Info : Audio Coding 3
Mode extension : CM (complete main)
Codec ID : 2000
Duration : 1h 29mn
Bit rate mode : Constant
Bit rate : 448 Kbps
Channel(s) : 6 channels
Channel positions : Front: L C R, Side: L R, LFE
Sampling rate : 48.0 KHz
Bit depth : 16 bits
Stream size : 288 MiB (18%)
Alignment : Aligned on interleaves
Interleave, duration : 40 ms (1.00 video frame)
SCREENY:
                
TRAILER:
REKLAMA:
DETALE TORRENTA:[ Pokaż/Ukryj ]

Podobne pliki
Czas bohaterów / Age Of Heroes *2011* [DVDRip] [XViD] [AC3] [ENG] [NAPISY PL]
Czas bohaterów / Age Of Heroes *2011* [DVDRip] [XViD] [AC3] [ENG] [NAPISY PL]
Czas bohaterów - Age of Heroes (2011) [DVDRip] [XviD] [ENG] [Napisy PL]
Czas bohaterów - Age of Heroes (2011) [DVDRip] [XviD] [ENG] [Napisy PL]
Czas bohaterów / Age of Heroes (2011) [BRRip] [XviD] [Napisy PL]
Czas bohaterów / Age of Heroes (2011) [BRRip] [XviD] [Napisy PL]
Czas bohaterów / Age of Heroes *2011* [BRRip] [XviD-MATA] [Napisy PL]
Czas bohaterów / Age of Heroes *2011* [BRRip] [XviD-MATA] [Napisy PL]
Czas bohaterów - Age of Heroes *2011* [BRRip] [XviD-BiDA] [Lektor PL]
Czas bohaterów - Age of Heroes *2011* [BRRip] [XviD-BiDA] [Lektor PL]
Czas Bohaterów - Age Of Heroes *2011* [480p] [BRRip] [XviD] [AC3] [Lektor PL]
Czas Bohaterów - Age Of Heroes *2011* [480p] [BRRip] [XviD] [AC3] [Lektor PL]
Czas bohaterów - Age of Heroes (2011) [BRRip] [RMVB] [Lektor PL]
Czas bohaterów - Age of Heroes (2011) [BRRip] [RMVB] [Lektor PL]
Czas Bohaterów - Age of Heroes *2011* [BDRip] [720p] [RMVB] [Lektor PL]
Czas Bohaterów - Age of Heroes *2011* [BDRip] [720p] [RMVB] [Lektor PL]

Komentarze

Brak komentarzy

Zaloguj się aby skomentować